HD Fshare Sky Angel Blue 7 - Hana

Thảo luận trong 'Phim Sex Âu - Á tuyển chọn' bắt đầu bởi DARK KNIGHT, 15/9/15.

video gai goi
  1. DARK KNIGHT

    DARK KNIGHT Dân chơi Active Member Vip Thanh Lâu

    Tham gia ngày:
    14/9/15
    Bài viết:
    211
    Đã được thích:
    102
    Điểm thành tích:
    72
    Giới tính:
    Nam
    Sky Angel Blue 7 - Hana - BDRip 720p AC3 x264

    [​IMG]

    Screenshot:


    [​IMG]

    Mediainfo:
    Mã:
    Sky Angel Blue 7 - Hana - BDRip 720p AC3 x264.mkv
    Format                                   : Matroska
    Format version                           : Version 1
    File size                                : 7.96 GiB
    Duration                                 : 2h 56mn
    Overall bit rate                         : 6 473 Kbps
    Movie name                               : BDRip*Camelot*HDTPORNO.ORG*
    Encoded date                             : UTC 2009-10-15 15:32:07
    Writing application                      : mkvmerge v2.0.2 ('You're My Flame') built on Feb 21 2007 23:40:55
    Writing library                          : libebml v0.7.7 + libmatroska v0.8.1
    
    Video
    ID                                       : 1
    Format                                   : AVC
    Format/Info                              : Advanced Video Codec
    Format profile                           : High@L4.1
    Format settings, CABAC                   : Yes
    Format settings, ReFrames                : 5 frames
    Codec ID                                 : V_MPEG4/ISO/AVC
    Duration                                 : 2h 56mn
    Bit rate                                 : 6 277 Kbps
    Width                                    : 1 280 pixels
    Height                                   : 720 pixels
    Display aspect ratio                     : 16:9
    Frame rate mode                          : Constant
    Frame rate                               : 29.970 fps
    Color space                              : YUV
    Chroma subsampling                       : 4:2:0
    Bit depth                                : 8 bits
    Scan type                                : Progressive
    Bits/(Pixel*Frame)                       : 0.227
    Stream size                              : 7.56 GiB (95%)
    Title                                    : Video_fail
    Writing library                          : x264 core 68 r1183M f21daff
    Encoding settings                        : cabac=1 / ref=5 / deblock=1:-3:-3 / analyse=0x3:0x133 / me=umh / subme=7 / psy_rd=1.0:0.0 / mixed_ref=1 / me_range=32 / chroma_me=1 / trellis=1 / 8x8dct=1 / cqm=2 / deadzone=21,11 / chroma_qp_offset=-2 / threads=12 / nr=0 / decimate=0 / mbaff=0 / bframes=3 / b_pyramid=1 / b_adapt=1 / b_bias=0 / direct=3 / wpredb=1 / keyint=250 / keyint_min=25 / scenecut=40 / rc=2pass / bitrate=6277 / ratetol=1.0 / qcomp=0.60 / qpmin=10 / qpmax=51 / qpstep=4 / cplxblur=20.0 / qblur=0.5 / ip_ratio=1.40 / pb_ratio=1.30 / aq=1:1.00
    Default                                  : Yes
    Forced                                   : No
    
    Audio
    ID                                       : 2
    Format                                   : AC-3
    Format/Info                              : Audio Coding 3
    Mode extension                           : CM (complete main)
    Format settings, Endianness              : Big
    Codec ID                                 : A_AC3
    Duration                                 : 2h 56mn
    Bit rate mode                            : Constant
    Bit rate                                 : 192 Kbps
    Channel(s)                               : 2 channels
    Channel positions                        : Front: L R
    Sampling rate                            : 48.0 KHz
    Bit depth                                : 16 bits
    Compression mode                         : Lossy
    Stream size                              : 242 MiB (3%)
    Title                                    : Audio_fail
    Language                                 : Japanese
    Default                                  : Yes
    Forced                                   : No
    
    [​IMG]

    [​IMG]
    Mã:
    http://www.fshare.vn/file/TNCJCGAXAT/

    [​IMG] Anh em ráng giữ seed cho người đến sau nhé!
    Mã:
     
    magnet:?xt=urn:btih:F637AB88F49CAF19AF23076734A6A56C8F644105 
     

Chia sẻ trang này